#TITLE:Shut Up;
#SUBTITLE:Expi3nze;
#ARTIST:U-Kiss;
#TITLETRANSLIT:;
#SUBTITLETRANSLIT:;
#ARTISTTRANSLIT:;
#CREDIT:;
#BANNER:;
#BACKGROUND:;
#LYRICSPATH:;
#CDTITLE:;
#MUSIC:Shut Up.mp3;
#OFFSET:-0.220;
#SAMPLESTART:30.934;
#SAMPLELENGTH:15.476;
#SELECTABLE:YES;
#BPMS:0.000=126.000,1.500=63.000,2.333=252.036,3.000=63.000,3.833=252.144,4.000=252.000,4.500=63.000,5.333=252.036,6.000=63.000,6.833=252.000,7.000=252.048,7.500=63.000,8.333=252.036,9.000=63.000,9.833=252.000,10.000=252.048,10.500=63.000,11.333=252.036,12.000=63.000,12.500=126.000,27.125=504.192,27.375=252.096,27.500=126.000,27.750=504.192,28.000=503.808,28.250=252.000,28.500=126.000,28.625=504.192,28.875=252.096,29.000=126.000,29.250=504.000,29.750=252.000,30.000=126.000,30.250=504.000,30.750=252.000,31.000=126.000,61.125=504.192,61.375=252.096,61.500=126.000,61.750=504.192,62.000=503.808,62.250=252.000,62.500=126.000,62.625=504.192,62.875=252.096,63.000=126.000,63.250=504.000,63.750=252.000,64.000=126.000,64.250=504.000,64.750=252.000,65.000=126.000,65.250=252.000,65.500=126.000,65.750=252.000,66.000=126.000,66.250=252.000,66.500=126.000,66.750=252.000,67.000=126.000,67.250=252.000,67.500=126.000,67.750=252.000,68.000=126.000,68.250=252.000,68.500=126.000,68.750=252.000,69.000=504.000,73.000=252.000,77.000=504.000,83.000=252.000,84.000=126.000,84.250=252.000,84.500=126.000,84.750=252.000,85.000=126.000,85.250=252.000,85.500=126.000,85.750=252.000,86.000=126.000,86.250=252.000,86.500=126.000,86.750=252.000,87.000=126.000,87.250=252.000,87.500=126.000,87.750=252.000,88.000=504.000,92.000=252.000,96.000=504.000,102.000=252.000,103.000=126.000,103.250=252.000,103.500=126.000,103.750=252.000,104.000=126.000,104.250=252.000,104.500=126.000,104.750=252.000,105.000=126.000,105.250=252.000,105.500=126.000,105.750=252.000,106.000=126.000,106.250=252.000,106.500=126.000,106.750=252.000,107.000=504.000,111.000=252.000,115.000=504.000,121.000=252.000,122.000=126.000,122.250=252.000,122.500=126.000,122.750=252.000,123.000=126.000,123.250=252.000,123.500=126.000,123.750=252.000,124.000=126.000,124.250=252.000,124.500=126.000,124.750=252.000,125.000=126.000,125.250=252.000,125.500=126.000,125.750=252.000,126.000=504.000,130.000=252.000,134.000=126.000,134.125=504.192,134.375=252.096,134.500=126.000,134.750=504.192,135.000=503.808,135.250=252.000,135.500=126.000,135.625=504.192,135.875=252.096,136.000=126.000,136.250=504.000,136.750=252.000,137.000=126.000,137.250=504.000,137.750=252.000,138.000=126.000,168.125=504.192,168.375=252.096,168.500=126.000,168.750=504.192,169.000=503.808,169.250=252.000,169.500=126.000,169.625=504.192,169.875=252.096,170.000=126.000,170.250=504.000,170.750=252.000,171.000=126.000,171.250=504.000,171.750=252.000,172.000=126.000,172.250=252.000,172.500=126.000,172.750=252.000,173.000=126.000,173.250=252.000,173.500=126.000,173.750=252.000,174.000=126.000,174.250=252.000,174.500=126.000,174.750=252.000,175.000=126.000,175.250=252.000,175.500=126.000,175.750=252.000,176.000=504.000,180.000=252.000,184.000=504.000,190.000=252.000,191.000=126.000,191.250=252.000,191.500=126.000,191.750=252.000,192.000=126.000,192.250=252.000,192.500=126.000,192.750=252.000,193.000=126.000,193.250=252.000,193.500=126.000,193.750=252.000,194.000=126.000,194.250=252.000,194.500=126.000,194.750=252.000,195.000=504.000,199.000=252.000,203.000=504.000,209.000=252.000,210.000=126.000,210.250=252.000,210.500=126.000,210.750=252.000,211.000=126.000,211.250=252.000,211.500=126.000,211.750=252.000,212.000=126.000,212.250=252.000,212.500=126.000,212.750=252.000,213.000=126.000,213.250=252.000,213.500=126.000,213.750=252.000,214.000=504.000,218.000=252.000,222.000=504.000,228.000=252.000,229.000=126.000,229.250=252.000,229.500=126.000,229.750=252.000,230.000=126.000,230.250=252.000,230.500=126.000,230.750=252.000,231.000=126.000,231.250=252.000,231.500=126.000,231.750=252.000,232.000=126.000,232.250=252.000,232.500=126.000,232.750=252.000,233.000=504.000,237.000=252.000,241.000=126.000,241.125=504.192,241.375=252.096,241.500=126.000,241.750=504.192,242.000=503.808,242.250=252.000,242.500=126.000,242.625=504.192,242.875=252.096,243.000=126.000,243.250=504.000,243.750=252.000,244.000=126.000,244.250=504.000,244.750=252.000,245.000=126.000,275.125=504.192,275.375=252.096,275.500=126.000,275.750=504.192,276.000=503.808,276.250=252.000,276.500=126.000,276.625=504.192,276.875=252.096,277.000=126.000,277.250=504.000,277.750=252.000,278.000=126.000,278.250=504.000,278.750=252.000,279.000=126.000,279.250=252.000,279.500=126.000,279.750=252.000,280.000=126.000,280.250=252.000,280.500=126.000,280.750=252.000,281.000=126.000,281.250=252.000,281.500=126.000,281.750=252.000,282.000=126.000,282.250=252.000,282.500=126.000,282.750=252.000,283.000=504.000,287.000=252.000,291.000=504.000,297.000=252.000,298.000=126.000,298.250=252.000,298.500=126.000,298.750=252.000,299.000=126.000,299.250=252.000,299.500=126.000,299.750=252.000,300.000=126.000,300.250=252.000,300.500=126.000,300.750=252.000,301.000=126.000,301.250=252.000,301.500=126.000,301.750=252.000,302.000=504.000,306.000=252.000,310.000=504.000,316.000=252.000,317.000=126.000,317.250=252.000,317.500=126.000,317.750=252.000,318.000=126.000,318.250=252.000,318.500=126.000,318.750=252.000,319.000=126.000,319.250=252.000,319.500=126.000,319.750=252.000,320.000=126.000,320.250=252.000,320.500=126.000,320.750=252.000,321.000=504.000,325.000=252.000,329.000=504.000,335.000=252.000,336.000=126.000,336.250=252.000,336.500=126.000,336.750=252.000,337.000=126.000,337.250=252.000,337.500=126.000,337.750=252.000,338.000=126.000,338.250=252.000,338.500=126.000,338.750=252.000,339.000=126.000,339.250=252.000,339.500=126.000,339.750=252.000,340.000=504.000,344.000=252.000,348.000=126.000,348.125=504.192,348.375=252.096,348.500=126.000,348.750=504.192,349.000=503.808,349.250=252.000,349.500=126.000,349.625=504.192,349.875=252.096,350.000=126.000,350.250=504.000,350.750=252.000,351.000=126.000,351.250=504.000,351.750=252.000,357.000=126.000,361.500=252.000,362.000=63.000,362.250=126.000,362.500=252.000,367.500=126.000,370.500=63.000,370.750=252.000,371.250=126.000,371.625=504.192,371.875=252.096,372.000=126.000,372.250=504.000,372.750=252.000,373.000=126.000,373.125=504.192,373.375=252.096,373.500=126.000,374.000=252.000,379.000=126.000,383.500=63.000,383.750=252.000,384.250=126.000,384.500=252.000,389.500=126.000,393.125=504.192,393.375=252.096,393.500=126.000,393.750=504.192,394.000=503.808,394.250=252.000,394.500=126.000,394.625=504.192,394.875=252.096,395.000=126.000,395.250=504.000,395.750=252.000,396.000=126.000;
#STOPS:;
#BGCHANGES:;
// cache tags:
#FIRSTBEAT:1.500;
#LASTBEAT:396.000;
#SONGFILENAME:Songs/Super Dancer Online/Shut-Up/Shut Up.sm;
#HASMUSIC:0;
#HASBANNER:0;
#MUSICLENGTH:100.000;
// end cache tags

//---------------dance-single - ----------------
#NOTES:
     dance-single:
     :
     Hard:
     27:
     1.000,1.000,1.000,1.000,1.000,858.000,200.000,334.000,14.000,117.000:
0000
0000
0000
0002
0003
M00M
2000
3000
,
M0M0
0020
0030
M0M0
2000
3000
M00M
0002
,
0003
0M0M
0200
0300
0MM0
0020
0030
0MM0
,
0020
0000
0030
0000
0010
0000
0020
0000
1030
0000
0010
0000
0010
0000
0010
1000
,
0010
0000
0010
0100
1000
0000
0010
0000
0110
0000
0010
0100
0010
0000
0020
0001
,
0130
0000
0010
0000
0010
0000
0020
0000
1030
0000
0010
0000
0010
0000
0010
1000
,
0010
0000
0010
0100
1000
0000
0020
0000
0031
0000
1000
0000
0001
0000
1001
0000
,
0000
0000
1001
0000
1000
0000
0000
0000
0011
0000
0000
0000
1000
0000
0020
0100
,
0031
0010
1000
0100
0010
0001
2000
0100
3011
1000
0001
0010
0001
0100
0020
0000
,
0031
0000
1100
0000
0001
0100
0020
0000
0031
0010
0000
0100
0011
1000
0002
0100
,
0013
0100
0010
0001
1000
0100
0020
0000
0031
0000
0010
0000
1000
0010
0102
0000
,
0013
0000
1010
0000
0010
0000
2000
0100
3000
0000
0001
0100
0010
0000
0020
0000
,
1030
0000
0010
0100
0010
0001
2000
0100
3001
0100
1000
0000
0011
0000
2000
0010
,
3001
0000
1000
0000
0011
1000
0020
0000
0031
0000
0010
1001
0100
0000
0020
0000
,
1030
0000
0010
0001
0010
0100
0002
0000
0013
0000
1000
0000
0011
0000
2000
0100
,
3010
0001
1000
1001
0000
1000
0011
0000
,
0100
0000
0000
0000
1000
0010
0000
0000
1100
0001
0000
0000
0010
1000
0000
0000
,
0011
0000
0000
0000
0000
0000
0000
0000
0000
0000
0000
0000
1000
0000
0000
0000
0000
0000
0000
0000
0000
0000
0000
0000
0000
0000
0000
0000
0000
0000
0000
0000
0000
0000
0000
0000
0000
0000
0000
0000
0000
0000
0000
0000
0000
0000
0000
0000
0000
0020
0000
0000
0000
0000
0000
0000
0000
0000
0000
0000
0231
0000
0000
0000
0000
0000
0000
0000
0000
0000
0000
0000
0321
0000
0000
0000
0000
0000
0000
0000
0000
0000
0000
0000
0030
0000
0000
0000
0000
0000
0000
0000
0000
0000
0000
0000
0200
0000
0000
0000
0000
0000
0000
0000
0000
0000
0000
0000
1320
0000
0000
0000
0000
0000
0000
0000
0000
0000
0000
0000
1230
0000
0000
0000
0000
0000
0000
0000
0000
0000
0000
0000
0300
0000
0000
0000
0000
0000
0000
0000
0000
0000
0000
0000
0020
0000
0000
0000
0000
0000
0000
0000
0000
0000
0000
0000
0231
0000
0000
0000
0000
0000
0000
0000
0000
0000
0000
0000
0321
0000
0000
0000
0000
0000
0000
0000
0000
0000
0000
0000
0030
0000
0000
0000
0000
0000
0000
0000
0000
0000
0000
0000
,
0010
0000
0000
0000
2000
3000
2000
0000
3012
0003
0002
0000
1203
0300
0200
0000
,
0312
0003
0002
0000
2003
3200
0300
0010
1000
0000
0200
0320
1030
0100
0000
0010
,
0200
0000
0000
0000
0300
0000
0000
0000
0010
0000
0000
0000
0200
0320
0031
0000
,
1000
0010
0000
0000
1100
0001
0000
0000
0010
1000
0000
0000
0011
1000
0000
0000
,
0000
0020
0000
0000
0000
0000
0000
0000
0000
0000
0000
0000
0231
0000
0000
0000
0000
0000
0000
0000
0000
0000
0000
0000
0321
0000
0000
0000
0000
0000
0000
0000
0000
0000
0000
0000
0030
0000
0000
0000
0000
0000
0000
0000
0000
0000
0000
0000
0200
0000
0000
0000
0000
0000
0000
0000
0000
0000
0000
0000
1320
0000
0000
0000
0000
0000
0000
0000
0000
0000
0000
0000
1230
0000
0000
0000
0000
0000
0000
0000
0000
0000
0000
0000
0300
0000
0000
0000
0000
0000
0000
0000
0000
0000
0000
0000
0020
0000
0000
0000
0000
0000
0000
0000
0000
0000
0000
0000
0231
0000
0000
0000
0000
0000
0000
0000
0000
0000
0000
0000
0321
0000
0000
0000
0000
0000
0000
0000
0000
0000
0000
0000
0030
0000
0000
0000
0000
0000
0000
0000
0000
0000
0000
0000
0010
0000
0000
0000
0000
0000
0000
0000
0000
0000
0000
0000
0000
0000
0000
0000
0000
0000
0000
0000
0000
0000
0000
0000
0000
0000
0000
0000
0000
0000
0000
0000
0000
0000
0000
0000
0000
0000
0000
0000
0000
0000
0000
0000
0000
0000
0000
0000
,
2000
3000
2000
0000
3012
0003
0002
0000
1203
0300
0200
0000
0312
0003
0002
0000
,
2003
3200
0300
0010
1000
0000
0200
0320
1030
0100
0000
0010
0200
0000
0000
0000
,
0300
0000
0000
0000
0000
0000
0000
0000
0000
0000
0000
0000
0000
0000
0000
0000
0000
0000
0000
0000
0000
0000
0000
0000
0000
0000
0000
0000
0000
0000
0000
0000
0000
0000
0000
0000
0000
0000
0000
0000
0000
0000
0000
0000
0000
0000
0000
0000
0010
0000
0000
0000
0000
0000
0000
0000
0000
0000
0000
0000
0000
0000
0000
0000
0000
0000
0000
0000
0000
0000
0000
0000
0000
0000
0000
0000
0000
0000
0000
0000
0000
0000
0000
0000
0000
0000
0000
0000
0000
0000
0000
0000
0000
0000
0000
0000
0200
0000
0000
0000
0000
0000
0000
0000
0000
0000
0000
0000
0320
0000
0000
0000
0000
0000
0000
0000
0000
0000
0000
0000
0031
0200
0000
0000
0000
0000
0000
0000
0000
0000
0000
0000
0300
0000
0000
0000
0000
0000
0000
0000
0000
0000
0000
0000
1000
0000
0000
0000
0000
0000
0000
0000
0000
0000
0000
0000
0010
0000
0000
0000
0000
0000
0000
0000
0000
0000
0000
0000
0000
0000
0000
0000
0000
0000
0000
0000
0000
0000
0000
0000
0000
0000
0000
0000
0000
0000
0000
0000
0000
0000
0000
0000
,
1100
0000
0000
0000
0000
0000
0000
0000
0000
0000
0000
0000
0001
0000
0000
0000
0000
0000
0000
0000
0000
0000
0000
0000
0000
0000
0000
0000
0000
0000
0000
0000
0000
0000
0000
0000
0000
0000
0000
0000
0000
0000
0000
0000
0000
0000
0000
0000
0010
0000
0000
0000
0000
0000
0000
0000
0000
0000
0000
0000
1000
0000
0000
0000
0000
0000
0000
0000
0000
0000
0000
0000
0000
0000
0000
0000
0000
0000
0000
0000
0000
0000
0000
0000
0000
0000
0000
0000
0000
0000
0000
0000
0000
0000
0000
0000
0011
0000
0000
0000
0000
0000
0000
0000
0000
0000
0000
0000
1000
0000
0000
0000
0000
0000
0000
0000
0000
0000
0000
0000
0000
0000
0000
0000
0000
0000
0000
0000
0000
0000
0000
0000
0000
0000
0000
0000
0000
0000
0000
0000
0000
0000
0000
0000
0000
0020
0000
0000
0000
0000
0000
0000
0000
0000
0000
0000
0231
0000
0000
0000
0000
0000
0000
0000
0000
0000
0000
0000
0321
0000
0000
0000
0000
0000
0000
0000
0000
0000
0000
0000
0030
0000
0000
0000
0000
0000
0000
0000
0000
0000
0000
0000
,
0200
1320
1230
0300
0020
0231
0321
0030
0010
0000
0000
0000
2000
3000
2000
0000
,
3012
0003
0002
0000
1203
0300
0200
0000
0312
0003
0002
0000
2003
3200
0300
0010
,
1000
0000
0200
0320
1030
0100
0000
0010
0200
0000
0000
0000
0300
0000
0000
0000
,
0010
0000
0000
0000
0000
0000
0000
0000
0000
0000
0000
0000
0000
0000
0000
0000
0000
0000
0000
0000
0000
0000
0000
0000
0000
0000
0000
0000
0000
0000
0000
0000
0000
0000
0000
0000
0000
0000
0000
0000
0000
0000
0000
0000
0000
0000
0000
0000
0200
0000
0000
0000
0000
0000
0000
0000
0000
0000
0000
0000
0320
0000
0000
0000
0000
0000
0000
0000
0000
0000
0000
0000
0031
0200
0000
0000
0000
0000
0000
0000
0000
0000
0000
0000
0300
0000
0000
0000
0000
0000
0000
0000
0000
0000
0000
0000
1000
0000
0000
0000
0000
0000
0000
0000
0000
0000
0000
0000
0010
0000
0000
0000
0000
0000
0000
0000
0000
0000
0000
0000
0000
0000
0000
0000
0000
0000
0000
0000
0000
0000
0000
0000
0000
0000
0000
0000
0000
0000
0000
0000
0000
0000
0000
0000
1100
0000
0000
0000
0000
0000
0000
0000
0000
0000
0000
0000
0001
0000
0000
0000
0000
0000
0000
0000
0000
0000
0000
0000
0000
0000
0000
0000
0000
0000
0000
0000
0000
0000
0000
0000
0000
0000
0000
0000
0000
0000
0000
0000
0000
0000
0000
0000
,
0010
1000
0000
0000
0011
1000
0000
0000
0020
0231
0321
0030
0200
1320
1230
0300
,
0020
0231
0321
0030
0010
0000
0000
0000
2000
3000
2000
0000
3012
0003
0002
0000
,
1203
0300
0200
0000
0312
0003
0002
0000
1003
0000
1001
0000
0000
0000
1000
0000
,
0011
0000
0000
0000
1100
0000
0000
0000
0001
0000
0020
0100
0031
0010
1000
0100
,
0010
0001
2000
0100
3011
1000
0001
0010
0001
0100
0020
0000
0031
0000
1100
0000
,
0001
0100
0020
0000
0031
0010
0000
0100
0011
1000
0002
0100
0013
0100
0010
0001
,
1000
0100
0020
0000
0031
0000
0010
0000
1000
0010
0102
0000
0013
0000
1010
0000
,
0010
0000
2000
0100
3000
0000
0001
0100
0010
0000
0020
0000
1030
0000
0010
0100
,
0010
0001
2000
0100
3001
0100
1000
0000
0011
0000
2000
0010
3001
0000
1000
0000
,
0011
1000
0020
0000
0031
0000
0010
1001
0100
0000
0020
0000
1030
0000
0010
0001
,
0010
0100
0002
0000
0013
0000
1000
0000
0011
0000
2000
0100
3010
0000
0001
0000
,
1000
1001
0000
1000
0011
0000
0100
0000
,
1000
0010
0000
0000
1100
0001
0000
0000
0010
1000
0000
0000
0011
1000
0000
0000
,
0000
0020
0000
0000
0000
0000
0000
0000
0000
0000
0000
0000
0231
0000
0000
0000
0000
0000
0000
0000
0000
0000
0000
0000
0321
0000
0000
0000
0000
0000
0000
0000
0000
0000
0000
0000
0030
0000
0000
0000
0000
0000
0000
0000
0000
0000
0000
0000
0200
0000
0000
0000
0000
0000
0000
0000
0000
0000
0000
0000
1320
0000
0000
0000
0000
0000
0000
0000
0000
0000
0000
0000
1230
0000
0000
0000
0000
0000
0000
0000
0000
0000
0000
0000
0300
0000
0000
0000
0000
0000
0000
0000
0000
0000
0000
0000
0020
0000
0000
0000
0000
0000
0000
0000
0000
0000
0000
0000
0231
0000
0000
0000
0000
0000
0000
0000
0000
0000
0000
0000
0321
0000
0000
0000
0000
0000
0000
0000
0000
0000
0000
0000
0030
0000
0000
0000
0000
0000
0000
0000
0000
0000
0000
0000
0010
0000
0000
0000
0000
0000
0000
0000
0000
0000
0000
0000
0000
0000
0000
0000
0000
0000
0000
0000
0000
0000
0000
0000
0000
0000
0000
0000
0000
0000
0000
0000
0000
0000
0000
0000
0000
0000
0000
0000
0000
0000
0000
0000
0000
0000
0000
0000
,
2000
3000
2000
0000
3012
0003
0002
0000
1203
0300
0200
0000
0312
0003
0002
0000
,
2003
3200
0300
0010
1000
0000
0200
0320
1030
0100
0000
0010
0200
0000
0000
0000
,
0300
0000
0000
0000
0010
0000
0000
0000
0200
0320
0031
0000
1000
0010
0000
0000
,
1100
0000
0000
0000
0000
0000
0000
0000
0000
0000
0000
0000
0001
0000
0000
0000
0000
0000
0000
0000
0000
0000
0000
0000
0000
0000
0000
0000
0000
0000
0000
0000
0000
0000
0000
0000
0000
0000
0000
0000
0000
0000
0000
0000
0000
0000
0000
0000
0010
0000
0000
0000
0000
0000
0000
0000
0000
0000
0000
0000
1000
0000
0000
0000
0000
0000
0000
0000
0000
0000
0000
0000
0000
0000
0000
0000
0000
0000
0000
0000
0000
0000
0000
0000
0000
0000
0000
0000
0000
0000
0000
0000
0000
0000
0000
0000
0011
0000
0000
0000
0000
0000
0000
0000
0000
0000
0000
0000
1000
0000
0000
0000
0000
0000
0000
0000
0000
0000
0000
0000
0000
0000
0000
0000
0000
0000
0000
0000
0000
0000
0000
0000
0000
0000
0000
0000
0000
0000
0000
0000
0000
0000
0000
0000
0000
0020
0000
0000
0000
0000
0000
0000
0000
0000
0000
0000
0231
0000
0000
0000
0000
0000
0000
0000
0000
0000
0000
0000
0321
0000
0000
0000
0000
0000
0000
0000
0000
0000
0000
0000
0030
0000
0000
0000
0000
0000
0000
0000
0000
0000
0000
0000
,
0200
1320
1230
0300
0020
0231
0321
0030
0010
0000
0000
0000
2000
3000
2000
0000
,
3012
0003
0002
0000
1203
0300
0200
0000
0312
0003
0002
0000
2003
3200
0300
0010
,
1000
0000
0200
0320
1030
0100
0000
0010
0200
0000
0000
0000
0300
0000
0000
0000
,
0010
0000
0000
0000
0000
0000
0000
0000
0000
0000
0000
0000
0000
0000
0000
0000
0000
0000
0000
0000
0000
0000
0000
0000
0000
0000
0000
0000
0000
0000
0000
0000
0000
0000
0000
0000
0000
0000
0000
0000
0000
0000
0000
0000
0000
0000
0000
0000
0200
0000
0000
0000
0000
0000
0000
0000
0000
0000
0000
0000
0320
0000
0000
0000
0000
0000
0000
0000
0000
0000
0000
0000
0031
0200
0000
0000
0000
0000
0000
0000
0000
0000
0000
0000
0300
0000
0000
0000
0000
0000
0000
0000
0000
0000
0000
0000
1000
0000
0000
0000
0000
0000
0000
0000
0000
0000
0000
0000
0010
0000
0000
0000
0000
0000
0000
0000
0000
0000
0000
0000
0000
0000
0000
0000
0000
0000
0000
0000
0000
0000
0000
0000
0000
0000
0000
0000
0000
0000
0000
0000
0000
0000
0000
0000
1100
0000
0000
0000
0000
0000
0000
0000
0000
0000
0000
0000
0001
0000
0000
0000
0000
0000
0000
0000
0000
0000
0000
0000
0000
0000
0000
0000
0000
0000
0000
0000
0000
0000
0000
0000
0000
0000
0000
0000
0000
0000
0000
0000
0000
0000
0000
0000
,
0010
0000
0000
0000
0000
0000
0000
0000
0000
0000
0000
0000
1000
0000
0000
0000
0000
0000
0000
0000
0000
0000
0000
0000
0000
0000
0000
0000
0000
0000
0000
0000
0000
0000
0000
0000
0000
0000
0000
0000
0000
0000
0000
0000
0000
0000
0000
0000
0011
0000
0000
0000
0000
0000
0000
0000
0000
0000
0000
0000
1000
0000
0000
0000
0000
0000
0000
0000
0000
0000
0000
0000
0000
0000
0000
0000
0000
0000
0000
0000
0000
0000
0000
0000
0000
0000
0000
0000
0000
0000
0000
0000
0000
0000
0000
0000
0000
0020
0000
0000
0000
0000
0000
0000
0000
0000
0000
0000
0231
0000
0000
0000
0000
0000
0000
0000
0000
0000
0000
0000
0321
0000
0000
0000
0000
0000
0000
0000
0000
0000
0000
0000
0030
0000
0000
0000
0000
0000
0000
0000
0000
0000
0000
0000
0200
0000
0000
0000
0000
0000
0000
0000
0000
0000
0000
0000
1320
0000
0000
0000
0000
0000
0000
0000
0000
0000
0000
0000
1230
0000
0000
0000
0000
0000
0000
0000
0000
0000
0000
0000
0300
0000
0000
0000
0000
0000
0000
0000
0000
0000
0000
0000
,
0020
0231
0321
0030
0010
0000
0000
0000
2000
3000
2000
0000
3012
0003
0002
0000
,
1203
0300
0200
0000
0312
0003
0002
0000
2003
3200
0300
0010
1000
0000
0200
0320
,
1030
0100
0000
0010
0200
0000
0000
0000
0300
0000
0000
0000
0010
0000
0000
0000
,
0200
0000
0000
0000
0000
0000
0000
0000
0000
0000
0000
0000
0320
0000
0000
0000
0000
0000
0000
0000
0000
0000
0000
0000
0031
0200
0000
0000
0000
0000
0000
0000
0000
0000
0000
0000
0300
0000
0000
0000
0000
0000
0000
0000
0000
0000
0000
0000
1000
0000
0000
0000
0000
0000
0000
0000
0000
0000
0000
0000
0010
0000
0000
0000
0000
0000
0000
0000
0000
0000
0000
0000
0000
0000
0000
0000
0000
0000
0000
0000
0000
0000
0000
0000
0000
0000
0000
0000
0000
0000
0000
0000
0000
0000
0000
0000
1100
0000
0000
0000
0000
0000
0000
0000
0000
0000
0000
0000
0001
0000
0000
0000
0000
0000
0000
0000
0000
0000
0000
0000
0000
0000
0000
0000
0000
0000
0000
0000
0000
0000
0000
0000
0000
0000
0000
0000
0000
0000
0000
0000
0000
0000
0000
0000
0010
0000
0000
0000
0000
0000
0000
0000
0000
0000
0000
0000
1000
0000
0000
0000
0000
0000
0000
0000
0000
0000
0000
0000
0000
0000
0000
0000
0000
0000
0000
0000
0000
0000
0000
0000
0000
0000
0000
0000
0000
0000
0000
0000
0000
0000
0000
0000
,
0011
1000
0000
0000
0020
0231
0321
0030
0200
1320
1230
0300
0020
0231
0321
0030
,
0010
0000
0000
0000
2000
3000
2000
0000
3012
0003
0002
0000
1203
0300
0200
0000
,
0312
0003
0002
0000
1003
0000
1001
0000
0000
0000
1000
0000
0011
0000
0000
0000
,
0110
0120
0030
0020
,
0030
0020
0000
0000
0000
0000
0000
0000
,
0000
0030
0000
0000
2000
0000
0000
0000
0000
0000
0000
0000
0020
0000
0000
0000
,
0000
0000
0000
0000
3001
0000
0100
0001
1100
0001
0000
0100
1001
0100
1000
0001
,
1100
0001
0100
0000
0031
0000
0000
0000
1000
0000
0001
0000
1001
0000
0001
0000
,
1001
1000
0011
1000
0011
1000
1001
0001
,
1001
1000
0011
1000
0011
1000
1001
0001
,
1001
0001
1100
0001
1100
0001
1000
1001
,
0000
0000
1000
0000
0011
0000
0000
0000
0100
0000
0000
0000
1000
0010
0000
0000
,
1100
0000
0000
0000
0000
0000
0000
0000
0000
0000
0000
0000
0001
0000
0000
0000
0000
0000
0000
0000
0000
0000
0000
0000
0000
0000
0000
0000
0000
0000
0000
0000
0000
0000
0000
0000
0000
0000
0000
0000
0000
0000
0000
0000
0000
0000
0000
0000
0010
0000
0000
0000
0000
0000
0000
0000
0000
0000
0000
0000
1000
0000
0000
0000
0000
0000
0000
0000
0000
0000
0000
0000
0000
0000
0000
0000
0000
0000
0000
0000
0000
0000
0000
0000
0000
0000
0000
0000
0000
0000
0000
0000
0000
0000
0000
0000
0011
0000
0000
0000
0000
0000
0000
0000
0000
0000
0000
0000
1000
0000
0000
0000
0000
0000
0000
0000
0000
0000
0000
0000
0000
0000
0000
0000
0000
0000
0000
0000
0000
0000
0000
0000
0000
0000
0000
0000
0000
0000
0000
0000
0000
0000
0000
0000
0000
0020
0000
0000
0000
0000
0000
0000
0000
0000
0000
0000
0231
0000
0000
0000
0000
0000
0000
0000
0000
0000
0000
0000
0321
0000
0000
0000
0000
0000
0000
0000
0000
0000
0000
0000
0030
0000
0000
0000
0000
0000
0000
0000
0000
0000
0000
0000
,
0200
1320
1230
0300
0020
0231
0321
0030
0010
0000
0000
0000
2000
3000
2000
0000
,
3012
0003
0002
0000
1203
0300
0200
0000
0312
0003
0002
0000
2003
3200
0300
0010
,
1000
0000
0200
0320
1030
0100
0000
0010
0200
0000
0000
0000
0300
0000
0000
0000
,
0010
0000
0000
0000
0200
0320
0031
0000
1000
0010
0000
0000
1100
0001
0000
0000
,
0010
0000
0000
0000
0000
0000
0000
0000
0000
0000
0000
0000
1000
0000
0000
0000
0000
0000
0000
0000
0000
0000
0000
0000
0000
0000
0000
0000
0000
0000
0000
0000
0000
0000
0000
0000
0000
0000
0000
0000
0000
0000
0000
0000
0000
0000
0000
0000
0011
0000
0000
0000
0000
0000
0000
0000
0000
0000
0000
0000
1000
0000
0000
0000
0000
0000
0000
0000
0000
0000
0000
0000
0000
0000
0000
0000
0000
0000
0000
0000
0000
0000
0000
0000
0000
0000
0000
0000
0000
0000
0000
0000
0000
0000
0000
0000
0000
0020
0000
0000
0000
0000
0000
0000
0000
0000
0000
0000
0231
0000
0000
0000
0000
0000
0000
0000
0000
0000
0000
0000
0321
0000
0000
0000
0000
0000
0000
0000
0000
0000
0000
0000
0030
0000
0000
0000
0000
0000
0000
0000
0000
0000
0000
0000
0200
0000
0000
0000
0000
0000
0000
0000
0000
0000
0000
0000
1320
0000
0000
0000
0000
0000
0000
0000
0000
0000
0000
0000
1230
0000
0000
0000
0000
0000
0000
0000
0000
0000
0000
0000
0300
0000
0000
0000
0000
0000
0000
0000
0000
0000
0000
0000
,
0020
0231
0321
0030
0010
0000
0000
0000
2000
3000
2000
0000
3012
0003
0002
0000
,
1203
0300
0200
0000
0312
0003
0002
0000
2003
3200
0300
0010
1000
0000
0200
0320
,
1030
0100
0000
0010
0200
0000
0000
0000
0300
0000
0000
0000
0010
0000
0000
0000
,
0200
0000
0000
0000
0000
0000
0000
0000
0000
0000
0000
0000
0320
0000
0000
0000
0000
0000
0000
0000
0000
0000
0000
0000
0031
0200
0000
0000
0000
0000
0000
0000
0000
0000
0000
0000
0300
0000
0000
0000
0000
0000
0000
0000
0000
0000
0000
0000
1000
0000
0000
0000
0000
0000
0000
0000
0000
0000
0000
0000
0010
0000
0000
0000
0000
0000
0000
0000
0000
0000
0000
0000
0000
0000
0000
0000
0000
0000
0000
0000
0000
0000
0000
0000
0000
0000
0000
0000
0000
0000
0000
0000
0000
0000
0000
0000
1100
0000
0000
0000
0000
0000
0000
0000
0000
0000
0000
0000
0001
0000
0000
0000
0000
0000
0000
0000
0000
0000
0000
0000
0000
0000
0000
0000
0000
0000
0000
0000
0000
0000
0000
0000
0000
0000
0000
0000
0000
0000
0000
0000
0000
0000
0000
0000
0010
0000
0000
0000
0000
0000
0000
0000
0000
0000
0000
0000
1000
0000
0000
0000
0000
0000
0000
0000
0000
0000
0000
0000
0000
0000
0000
0000
0000
0000
0000
0000
0000
0000
0000
0000
0000
0000
0000
0000
0000
0000
0000
0000
0000
0000
0000
0000
,
0011
0000
0000
0000
0000
0000
0000
0000
0000
0000
0000
0000
1000
0000
0000
0000
0000
0000
0000
0000
0000
0000
0000
0000
0000
0000
0000
0000
0000
0000
0000
0000
0000
0000
0000
0000
0000
0000
0000
0000
0000
0000
0000
0000
0000
0000
0000
0000
0000
0020
0000
0000
0000
0000
0000
0000
0000
0000
0000
0000
0231
0000
0000
0000
0000
0000
0000
0000
0000
0000
0000
0000
0321
0000
0000
0000
0000
0000
0000
0000
0000
0000
0000
0000
0030
0000
0000
0000
0000
0000
0000
0000
0000
0000
0000
0000
0200
0000
0000
0000
0000
0000
0000
0000
0000
0000
0000
0000
1320
0000
0000
0000
0000
0000
0000
0000
0000
0000
0000
0000
1230
0000
0000
0000
0000
0000
0000
0000
0000
0000
0000
0000
0300
0000
0000
0000
0000
0000
0000
0000
0000
0000
0000
0000
0020
0000
0000
0000
0000
0000
0000
0000
0000
0000
0000
0000
0231
0000
0000
0000
0000
0000
0000
0000
0000
0000
0000
0000
0321
0000
0000
0000
0000
0000
0000
0000
0000
0000
0000
0000
0030
0000
0000
0000
0000
0000
0000
0000
0000
0000
0000
0000
,
0010
0000
0000
0000
2000
3000
2000
0000
3012
0003
0002
0000
1203
0300
0200
0000
,
0312
0003
0002
0000
2003
3200
0300
0010
1000
0000
0200
0320
1030
0100
0000
0010
,
0200
0000
0000
0000
0000
0000
0000
0000
0000
0000
0000
0000
0000
0000
0000
0000
0000
0000
0000
0000
0000
0000
0000
0000
0000
0000
0000
0000
0000
0000
0000
0000
0000
0000
0000
0000
0000
0000
0000
0000
0000
0000
0000
0000
0000
0000
0000
0000
0300
0000
0000
0000
0000
0000
0000
0000
0000
0000
0000
0000
0000
0000
0000
0000
0000
0000
0000
0000
0000
0000
0000
0000
0000
0000
0000
0000
0000
0000
0000
0000
0000
0000
0000
0000
0000
0000
0000
0000
0000
0000
0000
0000
0000
0000
0000
0000
0010
0000
0000
0000
0000
0000
0000
0000
0000
0000
0000
0000
0000
0000
0000
0000
0000
0000
0000
0000
0000
0000
0000
0000
0000
0000
0000
0000
0000
0000
0000
0000
0000
0000
0000
0000
0000
0000
0000
0000
0000
0000
0000
0000
0000
0000
0000
0000
0200
0000
0000
0000
0000
0000
0000
0000
0000
0000
0000
0000
0320
0000
0000
0000
0000
0000
0000
0000
0000
0000
0000
0000
0031
0200
0000
0000
0000
0000
0000
0000
0000
0000
0000
0000
0300
0000
0000
0000
0000
0000
0000
0000
0000
0000
0000
0000
,
1000
0010
0000
0000
1100
0001
0000
0000
0010
1000
0000
0000
0011
1000
0000
0000
,
0020
0231
0321
0030
0200
1320
1230
0300
0020
0231
0321
0030
0010
0000
0000
0000
,
2000
3000
2000
0000
3012
0003
0002
0000
1203
0300
0200
0000
0312
0003
0002
0000
,
1003
1001
0000
1000
0011
0000
0011
0000
,
1000
0010
0100
1000
0001
0100
0010
0001
1000
0010
0100
1000
0001
0100
0010
0001
,
1000
0010
0100
1000
0002
0000
0213
0300
0210
0000
0300
0000
0001
0000
0101
0000
,
0001
0000
1100
0000
0000
0000
0110
0000
0000
0000
1000
0010
0100
1000
0001
0100
,
0010
0001
1000
0010
0100
1000
0001
0100
0010
0001
1000
0010
0100
1000
0002
0000
,
0213
0300
0021
0000
0030
0000
0010
0000
0110
0000
0010
0000
0000
0000
1000
0000
,
1001
0000
0000
0000
1001
0000
0001
0000
1000
0010
0100
1000
0001
0100
0010
0001
,
1000
0010
0100
1000
0001
0100
0010
0001
1000
0010
0100
1000
0002
0000
0203
0300
,
0020
0030
0010
0110
0010
0020
2030
3010
,
0000
0000
1000
0010
0100
1000
0001
0100
0010
0001
1000
0010
0100
1000
0001
0100
,
0010
0001
1000
0010
0100
1000
0002
0000
0203
0300
0020
0000
0030
0000
0100
0000
,
0110
0100
0001
0101
0000
0101
0100
0000
,
1101
0000
0000
0000
,
0000
0000
0000
0000
,
0000
0000
0000
0000
,
0000
0000
0000
0000
,
0000
0000
0000
0000
,
0000
0000
0000
0000
,
0000
0000
0000
0000
,
0000
0000
0000
0000
,
0000
0000
0000
0000
,
0000
0000
0000
0000
,
0000
0000
0000
0000
,
0000
0000
0000
0000
,
0000
0000
0000
0000
,
0000
0000
0000
0000
,
0000
0000
0000
0000
,
0000
0000
0000
0000
,
0000
0000
0000
0000
,
0000
0000
0000
0000
,
0000
0000
0000
0000
,
0000
0000
0000
0000
,
0000
0000
0000
0000
,
0000
0000
0000
0000
,
0000
0000
0000
0000
,
0000
0000
0000
0000
,
0000
0000
0000
0000
,
0000
0000
0000
0000
,
0000
0000
0000
0000
,
0000
0000
0000
0000
,
0000
0000
0000
0000
,
0000
0000
0000
0000
,
0000
0000
0000
0000
,
0000
0000
0000
0000
,
0000
0000
0000
0000
,
0000
0000
0000
0000
,
0000
0000
0000
0000
,
0000
0000
0000
0000
,
0000
0000
0000
0000
,
0000
0000
0000
0000
,
0000
0000
0000
0000
,
0000
0000
0000
0000
,
0000
0000
0000
0000
,
0000
0000
0000
0000
,
0000
0000
0000
0000
,
0000
0000
0000
0000
,
0000
0000
0000
0000
,
0000
0000
0000
0000
,
0000
0000
0000
0000
,
0000
0000
0000
0000
,
0000
0000
0000
0000
,
0000
0000
0000
0000
,
0000
0000
0000
0000
,
0000
0000
0000
0000
,
0000
0000
0000
0000
,
0000
0000
0000
0000
,
0000
0000
0000
0000
,
0000
0000
0000
0000
,
0000
0000
0000
0000
,
0000
0000
0000
0000
,
0000
0000
0000
0000
,
0000
0000
0000
0000
,
0000
0000
0000
0000
,
0000
0000
0000
0000
,
0000
0000
0000
0000
,
0000
0000
0000
0000
,
0000
0000
0000
0000
,
0000
0000
0000
0000
,
0000
0000
0000
0000
,
0000
0000
0000
0000
,
0000
0000
0000
0000
;
